#TITLE:Fire Fire;
#SUBTITLE:;
#ARTIST:StripE;
#TITLETRANSLIT:;
#SUBTITLETRANSLIT:;
#ARTISTTRANSLIT:;
#CREDIT:;
#BANNER:firefire-bn.jpg;
#BACKGROUND:;
#LYRICSPATH:;
#CDTITLE:cdtitle.png;
#MUSIC:Fire_Fire.mp3;
#OFFSET:-0.070;
#SAMPLESTART:70.000;
#SAMPLELENGTH:20.000;
#SELECTABLE:YES;
#BPMS:0.000=150.000;
#STOPS:;
#BGCHANGES:;
// cache tags:
#FIRSTBEAT:0.000;
#LASTBEAT:312.000;
#SONGFILENAME:Songs/Lon`/Fire Fire/Fire_Fire.sm;
#HASMUSIC:1;
#HASBANNER:1;
#MUSICLENGTH:129.937;
// end cache tags

//---------------dance-single - ----------------
#NOTES:
     dance-single:
     :
     Hard:
     27:
     1.000,1.000,1.000,1.000,1.000,1289.000,452.000,132.000,0.000,117.000:
2002
0000
0000
0000
0000
0000
0000
0000
0000
0000
0000
0000
0020
0000
0000
0030
,
3113
1000
0100
0010
1001
0100
1000
0100
1010
0001
1010
0100
1010
0001
0010
1000
,
0100
0001
1000
0100
1010
0001
1000
0100
1001
0100
1010
0001
1010
0100
1000
0100
,
0011
1000
0100
0001
1010
0100
0010
0100
1001
0100
0011
1000
0101
0010
1001
1000
,
0101
0010
0100
0001
1010
0100
1000
0010
0101
0010
1001
0100
1010
0001
0100
0010
,
1101
0010
0100
1000
0111
1000
0001
0010
1101
0010
0001
1000
0111
1000
0100
0001
,
1110
0001
1000
0100
1011
0100
0001
0010
1101
0010
1000
0001
1110
0001
1000
0100
,
1011
0100
1000
0100
0000
0000
1000
0100
1000
0001
0010
0001
1000
0100
1000
0010
0100
0010
1000
0001
1000
0001
1000
0001
,
0120
0000
1000
0000
0200
0001
1300
0001
2000
0001
3200
1000
0302
1000
0103
0001
,
1230
0301
0010
1002
0013
0100
2001
3100
1020
0031
0100
2010
3001
0010
1200
0312
,
1203
0000
0310
0000
0001
0000
0100
0000
1000
0000
0021
0000
0130
0000
0001
0000
0010
0000
1000
0000
0201
0000
1300
0011
0100
0000
0000
0000
0100
0000
0000
0000
,
1020
0031
0100
2001
3010
0100
1002
0103
2001
3100
0010
1000
0010
0100
1002
0013
,
1200
0301
1000
0100
0001
0100
2010
3102
2013
3102
2013
3000
1020
0030
0001
0010
,
1200
0301
0100
1020
0130
0001
1020
0130
2001
3010
0100
0001
0100
1000
0010
0000
,
1002
0100
1010
0100
1023
0001
1000
0001
1230
0001
0010
1000
0320
0100
1030
0001
,
2100
3001
0010
1200
0310
0001
2100
3010
1200
0301
0010
2100
3001
0010
1200
0310
,
2101
0000
3010
0000
1000
0000
0001
0000
1000
0100
0010
0000
0001
0100
1000
0000
0100
0010
0001
0000
1000
0010
0100
0000
0001
0100
0010
0001
0010
0100
1000
0100
,
0012
1003
0100
0021
1030
0100
0012
0103
0021
1030
0100
0012
0103
1000
0021
1130
,
0012
1003
0001
0010
0001
0100
0001
1000
0010
0100
1010
0101
1000
0000
1000
0100
,
1020
0031
0100
1002
0013
1000
0201
1300
0021
0130
1000
0120
1030
0000
0210
2301
,
3210
0301
1000
0100
0010
0100
0012
2103
3012
2103
3012
0003
2001
3000
0100
0000
,
2100
0001
3010
0001
1200
0001
0300
0001
1000
0001
0010
0000
1000
0000
0100
0000
0011
0000
1100
0000
0011
0000
1100
0000
0022
0000
0000
0000
1003
0000
0000
0000
,
0131
0000
0000
0100
0000
0000
0011
0000
0000
1000
0000
0000
0001
0000
0000
0100
0000
0000
0001
0000
0000
0010
0000
0000
1002
0000
0000
0123
0000
0000
1032
0000
0000
0123
0000
0000
2032
0000
0000
0000
0000
0000
0013
0000
0100
0000
0010
0000
,
3102
0000
0000
0010
0000
0000
1000
0000
0000
0010
0000
0000
1203
0000
0000
0010
0000
0000
0321
0000
1000
0000
0001
0000
2130
0000
0000
0001
0000
0000
0010
0000
0000
3100
0000
0000
1000
0000
0000
0001
0000
0000
0100
0000
1000
0000
0100
0000
,
1020
0000
0000
0001
0100
1000
0100
0000
0000
0001
1000
0100
0001
0100
1000
0001
1000
0100
0001
1000
0001
1000
0001
0100
,
1030
0001
0100
1000
0010
0001
0100
0010
1000
0100
0010
0001
0100
1000
0100
0010
0001
1000
0100
0010
0001
0100
0010
0100
1000
0010
0001
0100
0010
1000
0001
0100
,
1010
0001
0100
1000
0011
0100
1000
0100
1001
0100
0010
1000
0101
0010
0100
1000
,
0011
0000
0000
0100
0000
0000
0010
0000
0000
0001
0000
0000
1010
0000
0000
0100
0000
0000
1000
0000
0000
0001
0000
0000
0110
0000
0000
1000
0000
0000
0011
0000
1100
0000
0011
0000
1100
0000
0000
0010
0000
0000
1001
0000
0000
0100
0000
0000
,
1001
0010
0100
0010
0101
1000
0100
0010
1001
0010
0100
0010
0101
1000
0010
0100
,
1010
0101
1010
0101
0000
0000
1010
0101
1010
0101
0000
0000
0101
1010
0101
1010
0000
0000
1010
0101
1010
0101
1010
0101
,
1010
0100
0001
0010
0101
1000
0010
0100
0011
1000
0010
0100
1010
0001
0100
1000
,
0011
0000
0000
1000
0000
0000
0010
0000
0000
0100
0000
0000
1001
0000
0000
0010
0000
0000
0100
0000
0000
1000
0000
0000
0110
0000
0000
1000
0000
0000
0011
0000
1100
0000
0011
0000
1100
0000
0000
0010
0000
0000
1001
0000
0000
0010
0000
0000
,
0101
1000
0100
0010
1001
0100
0010
1000
0110
0001
0100
0010
1001
0100
0010
0001
,
0101
1010
0101
1010
0000
0000
1100
0011
1100
0011
0000
0000
1010
0101
1010
0101
0000
0000
1100
0011
1100
0011
1100
0011
,
1100
0000
0000
0001
0000
0000
0110
0000
0000
1000
0000
0000
0011
0000
0000
0100
0000
0000
0011
0000
0000
1000
0000
0000
0110
0000
0000
0001
0000
0000
0110
0000
0000
1000
0000
0000
0101
0000
0000
0010
0000
0000
1001
0000
0110
0000
1001
0000
,
0110
0000
0000
0001
0000
0000
1100
0000
0000
0001
0000
0000
0110
0000
0000
1000
0000
0000
0011
0000
0000
0100
0000
0000
1001
0000
0000
0100
0000
0000
1010
0000
0000
0001
0000
0000
0101
0000
0000
0010
0000
0000
0101
0000
1010
0000
0101
0000
,
1010
0000
0000
0100
0000
0000
1010
0000
0000
0001
0000
0000
0110
0000
0000
0001
0000
0000
0110
0000
1001
0000
0110
0000
1001
0000
0000
0100
0000
0000
1010
0000
0000
0100
0000
0000
0011
0000
0000
0010
0000
0000
0101
0000
1010
0000
0101
0000
,
1010
0000
0000
0100
0000
0000
1010
0000
0000
0001
0000
0000
0110
0000
0000
0001
0000
0000
1010
0000
0101
0000
1010
0000
0101
0000
0000
1000
0000
0000
0101
0000
0000
0010
0000
0000
1001
0000
0000
0010
0000
0000
1001
0000
0110
0000
1001
0000
,
0110
0000
0000
1000
0000
0000
0101
0000
0000
0010
0000
0000
0101
0000
0000
0010
0000
0000
0101
0000
0000
0010
0000
0000
1101
0000
0000
0010
0000
0000
0101
0000
0000
0010
0000
0000
0101
0000
0000
0010
0000
0000
0101
0000
1010
0000
0101
0000
,
1010
0000
0000
0001
0000
0000
1010
0000
0000
0100
0000
0000
1010
0000
0000
0100
0000
0000
1010
0000
0000
0100
0000
0000
1011
0000
0000
0100
0000
0000
1010
0000
0000
0100
0000
0000
1010
0000
0000
0100
0000
0000
1010
0000
0101
0000
1010
0000
,
0101
0010
0101
1000
0111
1000
0101
1000
0111
1000
0101
1000
0111
1000
0101
1000
,
0101
1010
0101
1010
0000
0000
1010
0101
1010
0101
0000
0000
0101
1010
0101
1010
0101
1010
0101
1010
0101
1010
0101
1010
,
0202
0000
0000
0000
1010
0000
0303
1010
0000
0000
2020
0000
0000
0000
0000
0000
,
3131
1010
0101
1010
0000
0000
0101
1010
0101
1010
0000
0000
1100
0011
1100
0011
0000
1100
0011
1100
0011
1100
0011
1100
,
0011
1000
0001
0010
1101
0010
0100
1000
0011
0100
0010
0001
1011
0100
0010
0001
,
1010
0100
1000
0010
1101
0010
0001
0010
0101
0010
1000
0100
1011
0100
0001
0010
,
1100
0010
0001
0100
1011
0100
1000
0010
0101
0010
1000
1000
0111
1000
0010
0100
,
1001
0000
0010
0000
0100
0000
1010
0000
0000
0100
0000
0000
1011
0000
0000
0100
0000
0000
0001
0000
0000
1000
0000
0000
0101
0000
0000
0010
0000
0000
0001
0000
0000
0100
0000
0000
1011
0000
0000
0100
0000
0000
0010
0000
0000
0100
0000
0000
,
1010
0001
0100
0001
1110
0001
1000
0010
0101
0010
0001
0100
1011
0100
0001
1000
,
0110
1000
0100
1000
0111
1000
0100
0010
1100
0010
0100
0001
1110
0001
0100
0010
,
1001
0010
0100
0001
0100
1000
0011
0100
1000
0010
0001
1000
0101
0000
0000
1000
0100
0010
0100
0001
0010
1000
0100
0010
,
0001
0000
0000
0001
0010
0000
0000
0000
0100
1000
0000
0000
0100
0000
0010
0001
0010
0000
1000
0000
0000
1000
0100
0010
,
0101
1000
0100
0010
1001
0100
0010
1000
1011
0100
0001
0100
1011
0010
0100
0001
,
1110
0100
0010
0001
1101
0010
0100
1000
1011
0100
1000
0100
1011
0100
0010
1000
,
1110
0001
1000
0010
1101
0001
0100
1000
1011
0100
0001
0100
1011
1000
0100
0010
,
1011
0100
0010
0100
1101
0010
0100
0001
1110
0001
0100
0010
1101
1000
0010
0100
,
1100
0001
0010
0100
1000
0001
1100
0010
0001
0100
0010
1000
0101
0010
0001
0100
0010
0100
1001
0010
0100
0001
0010
0100
,
1001
0010
0100
0010
1000
0100
1010
0001
0100
0010
0100
1000
0011
0100
0001
0100
1000
0010
0101
0010
0100
1000
0010
0001
,
0110
1000
0100
0010
0001
1000
0011
0100
0010
0001
0010
0100
1001
0010
0100
1000
0100
0001
0110
1000
0010
0100
0001
0010
,
1100
0001
0010
1000
0100
0010
0101
1000
0010
0100
1000
0001
1010
0100
0010
1000
0100
0010
1001
0100
0010
1000
0010
0100
,
1020
0130
0010
1002
0013
0100
2001
3100
1020
0031
0100
2010
3001
0010
1200
0312
,
1203
0000
0310
0000
0001
0000
0100
0000
1000
0000
0021
0000
0130
0000
0001
0000
0010
0000
1000
0000
0201
0000
1300
0011
0100
0000
0000
0000
0100
0000
0000
0000
,
1020
0031
0100
2001
3010
0100
1002
0103
2001
3100
0010
1000
0010
0100
1002
0013
,
1200
0301
1000
0100
0001
0100
2010
3102
2013
3102
2013
3000
1020
0030
0001
0010
,
1200
0301
0100
1020
0130
0001
1020
0130
2001
3010
0100
0001
0100
1000
0010
0000
,
1002
0100
1010
0100
1023
0001
1000
0001
1230
0001
0010
1000
0320
0100
1030
0001
,
1100
0010
0001
0100
0010
0001
1100
0000
0000
1001
0010
0100
1010
0001
0100
1001
0000
0000
1001
0100
0010
1001
0100
0010
,
1002
0000
0200
2300
3020
2000
0233
3020
2300
0200
3302
0200
2330
0203
0020
0032
,
3313
0000
1000
0000
0100
0000
0010
0000
1000
0000
0100
0000
0001
0000
0000
0000
0000
0000
1000
0000
0100
0000
0001
0000
1000
0000
0100
0000
0010
0000
0100
0000
0001
0000
1000
0000
0111
0000
0000
0000
0000
0000
1010
0000
0000
0100
0000
0000
,
1001
0010
1001
0010
1101
0010
1001
0100
1010
0001
0110
1000
0111
1000
0011
0100
,
1010
0001
1100
0010
1101
0010
0101
1000
0011
0100
1001
0100
1011
0100
1001
0100
,
1011
0100
1001
0100
1011
0100
0011
1000
0101
1000
0101
0010
1101
0010
1001
0100
,
1001
0100
1010
0001
1110
0001
1100
0001
1010
0100
1001
0010
1101
0010
1000
0100
,
1011
0100
0011
1000
0111
1000
0110
0001
1010
0100
1010
0001
1110
0001
1100
0010
,
1001
0010
0101
1010
0100
0010
0001
0010
0100
1000
0101
0010
0101
0010
0101
1000
0101
0010
0101
0010
0100
1000
0100
0010
,
0101
0010
0101
1000
0101
0010
0101
0010
0100
1000
0100
0010
0101
0010
0100
1010
0100
0010
1001
0000
0000
0110
0000
0000
,
2002
0000
0000
0000
,
0000
0000
0000
0000
,
3003
0000
0000
0000
;
